Movies - Other

Basic

  • Download 5x Faster
  • Download torrent
  • Direct Download
  • Rate this torrent +  |  -
Basic

Download FREE And Anonymously


Torrent info

Name:Basic

Total Size: 1.40 GB

Magnet: Magnet Link

Seeds: 0

Leechers: 0

Stream: Watch Full Movie @ Movie4u

Last Updated: 2015-09-20 10:57:02 (Update Now)

Torrent added: 2014-09-23 09:34:01

Alternatives:Basic Torrents



CyberGhost VPN For Torrents

Torrent Files List


 

tracker

leech seeds
 

Torrent description

With: John Travolta, Connie Nielsen and Samuel L. Jackson

Wanneer de gehate drilsergeant Nathan West en zes soldaten van zijn elite-eenheid verdwijnen tijdens een trainingsmissie in Panama, wordt er een onderzoek ingesteld. Twee commando\'s overleven de missie, maar ze weigeren te praten over wat er zich afspeelde in de jungle. Voormalig Army Ranger en huidig drugsagent Tom Hardy wordt op de zaak gezet om informatie los te weken bij de twee soldaten. Al snel ontdekt hij dat sergeant West door zijn eigen manschappen werd omgebracht, maar de twee militairen leggen tegenstrijdige verklaringen af over wie verantwoordelijk is voor het doden.

A DEA agent investigates the disappearance of a legendary Army ranger drill sergeant and several of his cadets during a training exercise gone severely awry.

http://www.imdb.com/title/tt0264395

--------------------- Dutch Friends 4ever ---------------------
---------------------------------------------------------------
- Bezoek ook eens mijn vrienden op: http://www.Film-Test.nl --
----- voor mijn Nederlandse Sync. ondertitels ---- en meer ----
------- http://www.Film-Test.nl ---- Over Films en meer -------
---------------------------------------------------------------

Basic preview 0
Basic preview 1
Basic preview 2

General:

Complete name : BasicBasic.avi
Format : AVI
Format/Info : Audio Video Interleave
File size : 1.40 GiB
Duration : 1h 34mn
Overall bit rate : 2 133 Kbps

Video:

Format : MPEG-4 Visual
Format profile : [email protected]
Format settings, BVOP : No
Format settings, QPel : No
Format settings, GMC : No warppoints
Format settings, Matrix : Default (H.263)
Codec ID : XVID
Codec ID/Hint : XviD
Duration : 1h 34mn
Source duration : 1h 34mn
Bit rate : 1 674 Kbps
Width : 720 pixels
Height : 304 pixels
Display aspect ratio : 2.35:1
Frame rate : 25.000 fps
Color space : YUV
Chroma subsampling : 4:2:0
Bit depth : 8 bits
Scan type : Progressive
Compression mode : Lossy
Bits/(Pixel*Frame) : 0.306
Stream size : 1.10 GiB (78%)
Writing library : XviD 1.1.2 (UTC 2006-11-01)

Audio:

Format : AC-3
Format/Info : Audio Coding 3
Mode extension : CM (complete main)
Format settings, Endianness : Big
Codec ID : 2000
Duration : 1h 34mn
Bit rate mode : Constant
Bit rate : 448 Kbps
Channel(s) : 6 channels
Channel positions : Front: L C R, Side: L R, LFE
Sampling rate : 48.0 KHz
Bit depth : 16 bits
Compression mode : Lossy
Stream size : 302 MiB (21%)
Alignment : Aligned on interleaves
Interleave, duration : 32 ms (0.80 video frame)

related torrents

Torrent name

health leech seeds Size
 


comments (0)

Main Menu

 

SitemapCrazy Rich Asians (2018) [WEBRip] [720p] | Điện thoại Apple iPhone 6 - 64GB, màu trắng | Watch movie