DVD / Film Extras

Rock Star 2001 DVDRip DivX ViTE avi torrent [mazysmadhouse net]

  • Download 5x Faster
  • Download torrent
  • Direct Download
  • Rate this torrent +  |  -

Torrent info

Name:Rock Star 2001 DVDRip DivX ViTE avi torrent [mazysmadhouse net]

Total Size: 701.38 MB

Magnet: Magnet Link

Seeds: 0

Leechers: 0

Stream: Watch Full Movie @ Movie4u

Last Updated: 2018-11-14 06:48:48 (Update Now)

Torrent added: 2009-11-21 17:42:16



CyberGhost VPN For Torrents

Torrent Files List


Rock.Star.2001.DVDRip.DivX-ViTE.avi (Size: 701.38 MB) (Files: 1)

 Rock.Star.2001.DVDRip.DivX-ViTE.avi

701.38 MB
 

tracker

leech seeds
 

Torrent description

Complete name : Rock.Star.2001.DVDRip.DivX-ViTE.avi
Format : AVI
Format/Info : Audio Video Interleave
File size : 701 MiB
Duration : 1h 40mn
Overall bit rate : 976 Kbps
Writing application : Nandub v1.0rc2
Writing library : Nandub build 1853/release

Video
ID : 0
Format : MPEG-4 Visual
Codec ID : DIV3
Codec ID/Hint : DivX 3 Low
Duration : 1h 40mn
Bit rate : 836 Kbps
Width : 576 pixels
Height : 240 pixels
Display aspect ratio : 2.40:1
Frame rate : 23.976 fps
Resolution : 24 bits
Bits/(Pixel*Frame) : 0.252
Stream size : 601 MiB (86%)

Audio
ID : 1
Format : MPEG Audio
Format version : Version 1
Format profile : Layer 3
Codec ID : 55
Codec ID/Hint : MP3
Duration : 1h 40mn
Bit rate mode : Constant
Bit rate : 128 Kbps
Channel(s) : 2 channels
Sampling rate : 44.1 KHz
Resolution : 16 bits
Stream size : 91.9 MiB (13%)
Alignment : Aligned on interleaves
Interleave, duration : 26 ms (0.63 video frame)
Interleave, preload duration : 496 ms

Chris Cole was born to rock. His longtime girlfriend Emily believes his talent could take him all the way - but Chris worships at the altar of Bobby Beers, the fiery frontman for heavy metal legends Steel Dragon. By day, Chris still lives at home with his parents and spends his days repairing copy machines. But when Chris takes the stage, fronting Pennsylvania's premiere Steel Dragon tribute band, all of that disappears. Chris Cole is Bobby Beers - mesmerizing audiences with his perfect imitation of Beers' electrifying vocals. The night his bandmates boot him out of the group, Chris is devastated - until an unexpected phone call changes his life forever: He, Chris Cole, has been tapped to replace Bobby Beers as the lead singer of Steel Dragon. In an instant, Chris rockets to the dizzying heights of sudden stardom, rising from devotee to icon, from rock fan to rock god - the wanna-be who got to be. So what happens when an average guy gets everything he wants - and discovers it's not enough?

Cast and Credits
Starring: Mark Wahlberg, Jennifer Aniston, Jason Flemyng, Timothy Olyphant, Timothy Spall
Directed by: Stephen Herek
Produced by: George Clooney, Steven Reuther, Mike Ockrent

Enjoy!!!

THIS TORRENT CANNOT BE DOWNLOAD FROM HERE YOU NEED TO REGISTER AT WWW.MAZYSMADHOUSE.NET

related torrents

Torrent name

health leech seeds Size
 


comments (0)

Main Menu

 

Sitemap1x78 Dragon Ball Super | Arlo Pro - 3 Camera System, Work with... | Chaussures à talons